Your browser is not supported. We recommend you to use latest Chrome, Firefox or Safari.

My.Stepmother.Is.an.Alien.1988.1080p.WEB-DL.AC3.x264-MAJO.mkv

  • +1
  • Resolution 1920 × 1080
  • Time 1:43:34
  • Size 4.1 GB

General
Complete name : My.Stepmother.Is.an.Alien.1988.1080p.WEB-DL.AC3.x264-MAJO.mkv
Format : Matroska
Format version : Version 4 / Version 2
File size : 3.80 GiB
Duration : 1 h 43 min
Overall bit rate : 5 254 kb/s
Movie name : My Stepmother Is an Alien 1988 (ENCODED BY majo0007)
Encoded date : UTC 2018-08-15 16:54:06
Writing application : mkvmerge v25.0.0 ('Prog Noir') 64-bit
Writing library : libebml v1.3.6 + libmatroska v1.4.9

Video
ID : 1
Format : AVC
Format/Info : Advanced Video Codec
Format profile : High@L4.1
Format settings, CABAC : Yes
Format settings, RefFrames : 4 frames
Codec ID : V_MPEG4/ISO/AVC
Duration : 1 h 43 min
Bit rate : 5 000 kb/s
Width : 1 920 pixels
Height : 1 080 pixels
Display aspect ratio : 16:9
Original display aspect ratio : 16:9
Frame rate mode : Constant
Frame rate : 25.000 FPS
Color space : YUV
Chroma subsampling : 4:2:0
Bit depth : 8 bits
Scan type : Progressive
Bits/(Pixel*Frame) : 0.096
Stream size : 3.61 GiB (95%)
Writing library : x264 core 148 r2708 86b7198
Encoding settings : cabac=1 / ref=3 / deblock=1:-1:-1 / analyse=0x3:0x113 / me=hex / subme=7 / psy=1 / psy_rd=1.00:0.15 / mixed_ref=1 / me_range=16 / chroma_me=1 / trellis=1 / 8x8dct=1 / cqm=0 / deadzone=21,11 / fast_pskip=1 / chroma_qp_offset=-3 / threads=6 / lookahead_threads=1 / sliced_threads=0 / nr=0 / decimate=1 / interlaced=0 / bluray_compat=0 / constrained_intra=0 / bframes=3 / b_pyramid=2 / b_adapt=1 / b_bias=0 / direct=1 / weightb=1 / open_gop=0 / weightp=2 / keyint=250 / keyint_min=25 / scenecut=40 / intra_refresh=0 / rc_lookahead=40 / rc=2pass / mbtree=1 / bitrate=5000 / ratetol=1.0 / qcomp=0.60 / qpmin=0 / qpmax=69 / qpstep=4 / cplxblur=20.0 / qblur=0.5 / vbv_maxrate=62500 / vbv_bufsize=78125 / nal_hrd=none / filler=0 / ip_ratio=1.40 / aq=1:1.00
Default : Yes
Forced : No
Color range : Limited
Color primaries : BT.709
Transfer characteristics : BT.709
Matrix coefficients : BT.709

Audio
ID : 2
Format : AC-3
Format/Info : Audio Coding 3
Format settings, Endianness : Big
Codec ID : A_AC3
Duration : 1 h 43 min
Bit rate mode : Constant
Bit rate : 256 kb/s
Channel(s) : 2 channels
Channel positions : Front: L R
Sampling rate : 48.0 kHz
Frame rate : 31.250 FPS (1536 SPF)
Bit depth : 16 bits
Compression mode : Lossy
Delay relative to video : -5 ms
Stream size : 190 MiB (5%)
Language : English
Service kind : Complete Main
Default : Yes
Forced : No

Text
ID : 3
Format : UTF-8
Codec ID : S_TEXT/UTF8
Codec ID/Info : UTF-8 Plain Text
Duration : 1 h 43 min
Bit rate : 51 b/s
Count of elements : 1206
Stream size : 39.2 KiB (0%)
Language : Czech
Default : Yes
Forced : No

Menu
00:00:00.000 : en:Start
00:02:52.320 : en:Dr. Steven Mills
00:06:38.240 : en:Sending a Signal
00:12:07.000 : en:En Route
00:16:07.560 : en:Celeste Martin
00:17:09.120 : en:Ron's Party
00:25:21.440 : en:Back at the Lab
00:28:29.720 : en:Kissing Celeste
00:36:48.920 : en:"What Is Sex?"
00:39:23.240 : en:Fireworks
00:45:29.080 : en:Jimmy Durante
00:48:29.200 : en:Steve Proposes
00:50:36.520 : en:Council Meeting
00:53:06.920 : en:Pre-Wedding
00:56:14.000 : en:The Ceremony
01:01:36.320 : en:Carl Sagan Calls
01:02:51.400 : en:Grocery Shopping
01:05:46.160 : en:Observing Celeste
01:06:48.560 : en:Breakfast
01:10:54.080 : en:Celeste Explains
01:13:13.640 : en:Non-Believer
01:15:03.440 : en:Saving Jessie
01:17:20.360 : en:1296 Years Old
01:22:13.800 : en:Secret Orders
01:25:12.040 : en:Wild Card
01:27:34.160 : en:"Get Rid of the Bag!"
01:29:23.040 : en:Council's Decision
01:32:53.720 : en:Ron's Sacrifice

Show / Hide more content

Web advert

Comments

  • You have to log in first to leave a comment. If you do not have a login yet, sign up.
  • No comments to display